2016 11 « 1.2.3.4.5.6.7.8.9.10.11.12.13.14.15.16.17.18.19.20.21.22.23.24.25.26.27.28.29.30.31. »  2017 01

機動戦士ガンダムUC ユニコーン episode.05 「黒いユニコーン」 ダウンロード

kage

2012/05/23 (Wed)

[TV-J] Kidou Senshi Gundam UC Unicorn - 05 [BD 1920x1080 h264+AAC(5.1ch JP,EN) Sub(JP,EN,FR,SP,CH)]

機動戦士ガンダムUC ユニコーン episode.05 「黒いユニコーン」

BD-rip 1920x1080 h264+AAC(5.1ch 日英) 字幕(日英仏西中)

ダウンロード:point



MEDIAINFO
General
Complete name :[TV-J] Kidou Senshi Gundam UC Unicorn - 05 [BD 1920x1080 h264+AAC(5.1ch JP,EN) Sub(JP,EN,FR,SP,CH)].mp4
Format : MPEG-4
Format profile : Base Media
Codec ID : isom
File size : 1.99 GiB
Duration : 53mn 34s
Overall bit rate mode : Variable
Overall bit rate : 5 327 Kbps
Movie name : 機動戦士ガンダムUC ユニコーン episode.05 「黒いユニコーン」
Encoded date : UTC 2012-05-18 09:33:11
Tagged date : UTC 2012-05-19 09:34:35

Video
ID : 1
Format : AVC
Format/Info : Advanced Video Codec
Format profile : High@L4.1
Format settings, CABAC : Yes
Format settings, ReFrames : 4 frames
Codec ID : avc1
Codec ID/Info : Advanced Video Coding
Duration : 53mn 34s
Bit rate : 3 989 Kbps
Maximum bit rate : 30.0 Mbps
Width : 1 920 pixels
Height : 1 080 pixels
Display aspect ratio : 16:9
Frame rate mode : Constant
Frame rate : 23.976 fps
Color space : YUV
Chroma subsampling : 4:2:0
Bit depth : 8 bits
Scan type : Progressive
Bits/(Pixel*Frame) : 0.080
Stream size : 1.49 GiB (75%)
Writing library : x264 core 106 r1732+9_DANGEROUS ac97594
Encoding settings : cabac=1 / ref=4 / deblock=1:-1:-1 / analyse=0x3:0x113 / me=umh / subme=9 / psy=1 / fade_compensate=0.00 / psy_rd=0.75:0.25 / mixed_ref=1 / me_range=16 / chroma_me=1 / trellis=2 / 8x8dct=1 / cqm=1 / deadzone=21,11 / fast_pskip=0 / chroma_qp_offset=-4 / threads=12 / sliced_threads=0 / nr=0 / decimate=0 / interlaced=0 / constrained_intra=0 / fgo=0 / bframes=6 / b_pyramid=0 / b_adapt=1 / b_bias=0 / direct=3 / weightb=1 / open_gop=0 / weightp=2 / keyint=240 / keyint_min=1 / scenecut=60 / intra_refresh=0 / rc_lookahead=40 / rc=crf / mbtree=0 / crf=20.0 / qcomp=0.60 / qpmin=8 / qpmax=42 / qpstep=8 / vbv_maxrate=62500 / vbv_bufsize=78125 / crf_max=0.0 / ip_ratio=1.40 / pb_ratio=1.30 / aq=2 / aq-strength=0.25 / aq-sensitivity=12.00 / aq-ifactor=1.00 / aq-pfactor=1.00 / aq-bfactor=1.00 / aq2=1 / aq2-strength=0.25 / aq2-sensitivity=15.00 / nal_hrd=none
Encoded date : UTC 2012-05-19 09:30:30
Tagged date : UTC 2012-05-18 09:33:29
Color primaries : BT.709-5, BT.1361, IEC 61966-2-4, SMPTE RP177
Transfer characteristics : BT.709-5, BT.1361
Matrix coefficients : BT.709-5, BT.1361, IEC 61966-2-4 709, SMPTE RP177

Audio #1
ID : 2
Format : AAC
Format/Info : Advanced Audio Codec
Format profile : LC
Codec ID : 40
Duration : 53mn 34s
Bit rate mode : Constant
Bit rate : 640 Kbps
Channel(s) : 6 channels
Channel positions : Front: L C R, Side: L R, LFE
Sampling rate : 48.0 KHz
Compression mode : Lossy
Delay relative to video : -1s 668ms
Stream size : 245 MiB (12%)
Title : JAPANESE
Language : Japanese
Encoded date : UTC 2012-05-18 09:33:22
Tagged date : UTC 2012-05-18 09:33:29

Audio #2
ID : 3
Format : AAC
Format/Info : Advanced Audio Codec
Format profile : LC
Codec ID : 40
Duration : 53mn 34s
Bit rate mode : Variable
Bit rate : 645 Kbps
Channel(s) : 6 channels
Channel positions : Front: L C R, Side: L R, LFE
Sampling rate : 48.0 KHz
Compression mode : Lossy
Delay relative to video : -1s 668ms
Stream size : 245 MiB (12%)
Title : ENGLISH
Language : English
Encoded date : UTC 2012-05-18 09:33:25
Tagged date : UTC 2012-05-18 09:33:29

Text #1
ID : 4
Format : mp4s
Codec ID : E0
Duration : 47mn 47s
Bit rate mode : Variable
Bit rate : 7 544 bps
Maximum bit rate : 3 727 Mbps
Delay relative to video : -1s 668ms
Stream size : 2.58 MiB (0%)
Language : Japanese
Encoded date : UTC 2012-05-18 09:33:28
Tagged date : UTC 2012-05-18 09:33:29

Text #2
ID : 5
Format : mp4s
Codec ID : E0
Duration : 53mn 12s
Bit rate mode : Variable
Bit rate : 8 204 bps
Maximum bit rate : 4 181 Mbps
Delay relative to video : -1s 668ms
Stream size : 3.12 MiB (0%)
Language : English
Encoded date : UTC 2012-05-18 09:33:28
Tagged date : UTC 2012-05-18 09:33:29

Text #3
ID : 6
Format : mp4s
Codec ID : E0
Duration : 53mn 12s
Bit rate mode : Variable
Bit rate : 7 440 bps
Maximum bit rate : 81.8 Kbps
Delay relative to video : -1s 668ms
Stream size : 2.83 MiB (0%)
Language : French
Encoded date : UTC 2012-05-18 09:33:29
Tagged date : UTC 2012-05-18 09:33:29

Text #4
ID : 7
Format : mp4s
Codec ID : E0
Duration : 53mn 12s
Bit rate mode : Variable
Bit rate : 8 226 bps
Maximum bit rate : 4 182 Mbps
Delay relative to video : -1s 668ms
Stream size : 3.13 MiB (0%)
Language : Spanish
Encoded date : UTC 2012-05-18 09:33:29
Tagged date : UTC 2012-05-18 09:33:29

Text #5
ID : 8
Format : mp4s
Codec ID : E0
Duration : 53mn 12s
Bit rate mode : Variable
Bit rate : 9 355 bps
Maximum bit rate : 3 727 Mbps
Delay relative to video : -1s 668ms
Stream size : 3.56 MiB (0%)
Language : Chinese
Encoded date : UTC 2012-05-18 09:33:29
Tagged date : UTC 2012-05-18 09:33:29

Text #6
ID : 9
Format : mp4s
Codec ID : E0
Duration : 53mn 12s
Bit rate mode : Variable
Bit rate : 9 327 bps
Maximum bit rate : 3 727 Mbps
Delay relative to video : -1s 668ms
Stream size : 3.55 MiB (0%)
Language : Chinese
Encoded date : UTC 2012-05-18 09:33:29
Tagged date : UTC 2012-05-18 09:33:29

Menu
00:00:00.000 : AVANT-TITLE
00:02:06.960 : PART A
00:25:59.432 : PART B
00:48:22.899 : ENDING

コメントフォーム

kage


URL:




Comment:

Password:

Secret:

管理者にだけ表示を許可する

この記事へのトラックバック

kage

この記事のトラックバックURL

引用此文章(FC2博客用户)